<?xml version="1.0" standalone="no"?>
<!DOCTYPE svg PUBLIC "-//W3C//DTD SVG 1.1//EN" "http://www.w3.org/Graphics/SVG/1.1/DTD/svg11.dtd">
<svg xmlns="http://www.w3.org/2000/svg">
<defs >
<font id="KumbhSans" horiz-adv-x="1147" ><font-face
    font-family="Kumbh Sans"
    units-per-em="2048"
    panose-1="0 0 0 0 0 0 0 0 0 0"
    ascent="2020"
    descent="-520"
    alphabetic="0" />
<glyph unicode=" " horiz-adv-x="464" />
<glyph unicode="!" horiz-adv-x="484" d="M320 412H164L125 1500H359L320 412ZM241 -20Q184 -20 145 19T106 113Q106 169 145 207T241 246Q299 246 338 208T378 113Q378 58 339 19T241 -20Z" />
<glyph unicode="&quot;" horiz-adv-x="798" d="M307 1085H153L126 1520H334L307 1085ZM645 1085H491L464 1520H672L645 1085Z" />
<glyph unicode="#" horiz-adv-x="1342" d="M1270 850H1047L995 556H1225L1194 366H962L897 0H669L734 366H468L403 0H176L240 366H42L72 556H274L326 850H117L148 1040H360L441 1500H668L587 1040H853L934 1500H1162L1081 1040H1300L1270 850ZM502 556H767L819
850H553L502 556Z" />
<glyph unicode="$" horiz-adv-x="1092" d="M52 230L181 440Q244 390 301 359T413 313T526 298Q595 298 645 317T722 372T750 457Q750 513 715 551T624 617T505 672Q439 699 373 731T252 806T164 912T131 1064Q131 1214 226 1310T475 1431L470 1620H652L646 1437Q727
1430 811 1406T979 1340L872 1119Q809 1157 736 1179T599 1201Q515 1201 463 1162T411 1060Q411 1009 445 973T535 908T656 850Q721 822 786 789T907 711T996 603T1030 452Q1030 351 983 271T849 139T646 69L652 -120H470L475 63Q361 71 253 114T52 230Z" />
<glyph unicode="%" horiz-adv-x="1626" d="M391 873Q239 873 146 962T52 1196Q52 1342 145 1431T391 1520Q544 1520 637 1431T731 1196Q731 1051 638 962T391 873ZM452 1H215L1182 1501H1419L452 1ZM391 1033Q454 1033 493 1078T532 1197Q532 1271 493 1315T391
1360Q328 1360 290 1316T251 1197Q251 1124 289 1079T391 1033ZM1235 -21Q1083 -21 990 68T896 303Q896 449 989 538T1235 627Q1388 627 1481 538T1574 303Q1574 158 1481 69T1235 -21ZM1235 140Q1298 140 1336 185T1375 303Q1375 377 1337 422T1235 467Q1171 467
1133 422T1095 303Q1095 230 1133 185T1235 140Z" />
<glyph unicode="&amp;" horiz-adv-x="1471" d="M1429 150L1307 -30Q1241 12 1179 54T1057 140Q960 57 846 14T606 -30Q460 -30 344 25T160 178T92 398Q92 497 134 569T245 695T390 793Q325 896 290 991T255 1171Q255 1276 305 1357T443 1484T645 1530Q755 1530
839 1488T972 1369T1020 1195Q1020 1087 971 1012T846 881T686 780Q750 700 835 616T1028 443Q1072 505 1108 582T1170 748L1388 680Q1355 570 1310 476T1208 303Q1266 260 1315 225T1429 150ZM595 911Q646 944 686 980T751 1062T775 1165Q775 1236 739 1280T645
1325Q586 1325 548 1279T510 1158Q510 1105 531 1042T595 911ZM488 659Q451 631 422 599T377 530T360 445Q360 375 395 320T492 234T633 202Q695 202 754 223T868 284Q753 379 658 473T488 659Z" />
<glyph unicode="&apos;" horiz-adv-x="452" d="M303 1085H149L122 1520H330L303 1085Z" />
<glyph unicode="(" horiz-adv-x="646" d="M604 -289H324Q188 -105 115 131T42 625Q42 882 115 1118T324 1540H604Q452 1342 372 1109T292 627Q292 380 372 145T604 -289Z" />
<glyph unicode=")" horiz-adv-x="646" d="M322 -289H42Q194 -90 274 145T354 627Q354 875 274 1108T42 1540H322Q459 1355 531 1119T604 625Q604 368 532 132T322 -289Z" />
<glyph unicode="*" horiz-adv-x="1049" d="M891 745L713 615L525 939L336 615L158 745L404 1026L42 1107L110 1316L451 1167L415 1541H635L599 1167L940 1316L1007 1107L644 1026L891 745Z" />
<glyph unicode="+" horiz-adv-x="1121" d="M999 374H686V64H435V374H122V601H435V910H686V601H999V374Z" />
<glyph unicode="," horiz-adv-x="482" d="M274 -240H82L156 192H390L274 -240Z" />
<glyph unicode="-" horiz-adv-x="1044" d="M922 392H122V611H922V392Z" />
<glyph unicode="." horiz-adv-x="485" d="M242 -20Q182 -20 145 17T107 116Q107 177 144 214T242 252Q303 252 341 215T379 116Q379 55 341 18T242 -20Z" />
<glyph unicode="/" horiz-adv-x="933" d="M283 -20H12L651 1520H921L283 -20Z" />
<glyph unicode="0" horiz-adv-x="1239" d="M619 -30Q451 -30 328 61T138 327T70 751Q70 999 137 1173T328 1438T619 1530Q788 1530 911 1439T1101 1173T1169 751Q1169 502 1102 328T912 62T619 -30ZM619 239Q731 239 792 373T854 750Q854 994 793 1127T619 1261Q509
1261 447 1128T385 750Q385 507 447 373T619 239Z" />
<glyph unicode="1" horiz-adv-x="843" d="M697 0H389V1198L138 1106L42 1351L452 1500H697V0Z" />
<glyph unicode="2" horiz-adv-x="1223" d="M1111 0H155V181Q332 339 452 460T645 676T749 850T781 1005Q781 1082 753 1140T673 1230T553 1262Q475 1262 402 1218T278 1095L122 1291Q210 1405 340 1467T612 1530Q746 1530 856 1473T1031 1311T1096 1063Q1096 963
1062 862T962 660T802 462T586 269H1111V0Z" />
<glyph unicode="3" horiz-adv-x="1172" d="M88 130L206 358Q286 299 363 269T514 239Q585 239 639 266T725 341T756 451Q756 554 671 611T434 669H370V883H434Q516 883 580 909T682 982T719 1089Q719 1139 693 1178T621 1239T516 1261Q455 1261 389 1235T249 1156L114
1370Q202 1447 313 1488T545 1530Q680 1530 784 1481T949 1346T1010 1148Q1010 1026 939 930T752 783Q903 741 989 643T1076 405Q1076 280 1007 182T817 27T544 -30Q418 -30 301 11T88 130Z" />
<glyph unicode="4" horiz-adv-x="1297" d="M1072 0H764V306H42V541L765 1500H1072V575H1255V306H1072V0ZM326 575H764V1156L326 575Z" />
<glyph unicode="5" horiz-adv-x="1170" d="M70 155L229 405Q268 330 346 285T515 239Q594 239 655 273T750 367T785 506Q785 585 751 645T654 739T513 773Q453 773 400 752T305 691L156 778L222 1500H1011V1231H504L471 914Q538 933 613 933Q753 933 863 873T1036
709T1100 470Q1100 326 1028 213T830 35T542 -30Q407 -30 284 18T70 155Z" />
<glyph unicode="6" horiz-adv-x="1197" d="M598 -30Q437 -30 319 42T135 245T70 555Q70 699 114 834T242 1090T447 1315T724 1500L866 1303Q749 1239 652 1157T482 982T365 791Q422 851 501 884T678 917Q809 917 910 859T1069 700T1127 467Q1127 323 1059 211T871
34T598 -30ZM599 239Q660 239 707 271T783 360T812 485Q812 553 785 605T710 687T602 718Q541 718 492 687T415 603T387 481Q387 412 415 358T492 271T599 239Z" />
<glyph unicode="7" horiz-adv-x="1074" d="M496 0H163L670 1231H42V1500H1032V1299L496 0Z" />
<glyph unicode="8" horiz-adv-x="1184" d="M591 -30Q435 -30 318 23T137 172T72 398Q72 541 152 644T372 794Q256 838 191 928T125 1143Q125 1261 182 1348T345 1482T592 1530Q733 1530 838 1483T1000 1348T1058 1143Q1058 1019 993 929T811 794Q951 748 1031
645T1112 398Q1112 270 1047 174T865 24T591 -30ZM592 924Q666 924 712 975T758 1110Q758 1193 712 1245T592 1297Q518 1297 472 1245T425 1110Q425 1027 471 976T592 924ZM592 215Q655 215 703 243T778 324T805 443Q805 512 778 563T703 643T591 672Q528 672 481
644T406 564T379 443Q379 376 406 325T481 244T592 215Z" />
<glyph unicode="9" horiz-adv-x="1197" d="M472 0L332 197Q449 261 546 343T715 518T832 709Q776 649 696 616T519 583Q387 583 286 641T128 800T70 1033Q70 1177 138 1289T327 1466T599 1530Q761 1530 879 1458T1062 1255T1127 945Q1127 801 1083 666T955 410T750
185T472 0ZM594 782Q657 782 705 813T781 898T809 1020Q809 1088 782 1142T706 1229T598 1261Q538 1261 490 1229T414 1141T386 1015Q386 948 413 896T487 813T594 782Z" />
<glyph unicode=":" horiz-adv-x="485" d="M242 707Q185 707 146 746T107 843Q107 900 146 940T242 980Q299 980 338 940T378 843Q378 786 339 747T242 707ZM242 -20Q185 -20 146 20T107 117Q107 173 146 213T242 253Q299 253 338 213T378 117Q378 60 339 20T242 -20Z" />
<glyph unicode=";" horiz-adv-x="482" d="M259 707Q202 707 163 746T124 843Q124 900 163 940T259 980Q316 980 356 940T396 843Q396 786 356 747T259 707ZM275 -240H82L156 192H390L275 -240Z" />
<glyph unicode="&lt;" horiz-adv-x="1083" d="M961 0L42 445V577L961 1020V782L341 511L961 237V0Z" />
<glyph unicode="=" horiz-adv-x="1199" d="M1077 630H122V851H1077V630ZM1077 143H122V364H1077V143Z" />
<glyph unicode="&gt;" horiz-adv-x="1083" d="M122 0V237L741 511L122 782V1020L1041 577V445L122 0Z" />
<glyph unicode="?" horiz-adv-x="935" d="M186 1160L72 1392Q260 1530 481 1530Q607 1530 699 1486T842 1361T893 1167Q893 1096 872 1043T814 944T729 851Q681 802 634 745T557 609T526 412H280Q280 558 311 653T389 812T478 923Q521 970 551 1014T582 1119Q582
1191 537 1234T413 1277Q349 1277 289 1246T186 1160ZM404 -20Q343 -20 306 17T268 116Q268 177 305 214T404 252Q464 252 501 215T539 116Q539 55 502 18T404 -20Z" />
<glyph unicode="@" horiz-adv-x="1903" d="M901 70Q775 70 677 129T523 291T466 528Q466 671 530 786T705 968T952 1035Q1056 1035 1140 995T1279 878L1286 973H1459Q1452 924 1445 859T1430 724T1416 587T1407 467T1403 383Q1403 321 1431 279T1503 236Q1549
236 1586 285T1646 417T1669 601Q1669 791 1587 934T1358 1156T1016 1236Q855 1236 718 1182T478 1029T319 798T262 510Q262 330 338 194T549 -19T862 -95Q1076 -95 1268 14L1341 -155Q1094 -274 844 -274Q610 -274 432 -175T154 101T54 509Q54 704 125 869T326
1158T630 1349T1010 1417Q1199 1417 1354 1359T1623 1195T1799 943T1861 621Q1861 458 1815 334T1688 139T1500 68Q1414 68 1350 115T1256 248Q1193 162 1102 116T901 70ZM941 250Q1018 250 1082 284T1190 379T1247 518L1252 581Q1252 663 1220 725T1129 821T994
856Q906 856 837 813T727 694T686 525Q686 401 756 326T941 250Z" />
<glyph unicode="A" horiz-adv-x="1568" d="M347 0H24L622 1500H947L1544 0H1221L1098 322H470L347 0ZM571 592H998L784 1148L571 592Z" />
<glyph unicode="B" horiz-adv-x="1325" d="M122 0V1500H677Q919 1500 1052 1398T1186 1110Q1186 997 1133 911T990 779Q1118 741 1189 649T1261 422Q1261 294 1199 200T1023 53T756 0H122ZM430 872H660Q763 872 823 921T883 1054Q883 1136 823 1183T655 1231H430V872ZM430
269H679Q761 269 821 292T913 359T946 461Q946 519 917 560T831 622T698 644H430V269Z" />
<glyph unicode="C" horiz-adv-x="1500" d="M1422 188Q1317 86 1173 28T860 -30Q689 -30 545 28T295 192T129 440T70 750Q70 918 129 1060T294 1308T545 1471T860 1530Q1028 1530 1171 1472T1420 1311L1205 1095Q1142 1172 1052 1216T855 1261Q754 1261 669 1223T519
1115T420 952T385 751Q385 641 420 548T519 386T668 278T855 239Q961 239 1051 283T1204 405L1422 188Z" />
<glyph unicode="D" horiz-adv-x="1571" d="M122 0V1500H613Q885 1500 1084 1408T1392 1148T1501 750Q1501 521 1392 353T1084 92T613 0H122ZM430 269H624Q804 269 929 325T1120 489T1186 750Q1186 904 1121 1011T930 1174T624 1231H430V269Z" />
<glyph unicode="E" horiz-adv-x="1212" d="M122 0V1500H1090V1231H430V890H1049V620H430V269H1100V0H122Z" />
<glyph unicode="F" horiz-adv-x="1172" d="M122 0V1500H1060V1231H430V890H1019V620H430V0H122Z" />
<glyph unicode="G" horiz-adv-x="1646" d="M1206 1123Q1140 1189 1049 1225T853 1261Q749 1261 663 1225T515 1122T419 963T385 756Q385 642 419 547T517 384T668 277T862 239Q950 239 1023 266T1153 343T1245 464T1296 623H861V858H1567L1576 742Q1576 571 1524
429T1375 185T1147 26T853 -30Q686 -30 544 29T295 194T129 442T70 751Q70 917 128 1058T292 1306T539 1471T846 1530Q1001 1530 1146 1476T1405 1322L1206 1123Z" />
<glyph unicode="H" horiz-adv-x="1509" d="M430 0H122V1500H430V873H1079V1500H1387V0H1079V604H430V0Z" />
<glyph unicode="I" horiz-adv-x="552" d="M430 1500H122V0H430V1500Z" />
<glyph unicode="J" horiz-adv-x="547" d="M-213 -360L-228 -91Q-53 -91 32 -8T117 242V1500H425V246Q425 30 361 -103T156 -298T-213 -360Z" />
<glyph unicode="K" horiz-adv-x="1477" d="M430 0H122V1500H430V762Q475 828 516 884T586 976L1002 1500H1365L815 808L1471 0H1072L618 561L430 324V0Z" />
<glyph unicode="L" horiz-adv-x="1144" d="M1102 0H122V1500H430V269H1102V0Z" />
<glyph unicode="M" horiz-adv-x="1847" d="M1725 0H1417V1060L1042 252H804L430 1057V0H122V1500H513L923 594L1333 1500H1725V0Z" />
<glyph unicode="N" horiz-adv-x="1607" d="M1485 0H1131L430 1024V0H122V1500H476L1177 474V1500H1485V0Z" />
<glyph unicode="O" horiz-adv-x="1718" d="M860 -30Q689 -30 545 28T294 192T129 440T70 750Q70 918 128 1060T293 1308T544 1472T860 1530Q1031 1530 1175 1472T1424 1308T1589 1061T1648 750Q1648 582 1590 440T1425 192T1175 29T860 -30ZM860 239Q961 239 1047
278T1198 386T1297 548T1333 750Q1333 859 1298 952T1198 1114T1048 1222T860 1261Q758 1261 672 1223T521 1115T421 952T385 750Q385 641 420 548T520 386T671 278T860 239Z" />
<glyph unicode="P" horiz-adv-x="1341" d="M122 0V1500H635Q824 1500 961 1439T1173 1264T1247 993Q1247 836 1173 722T963 545T638 483H430V0H122ZM430 753H606Q763 753 847 815T932 993Q932 1106 848 1168T606 1231H430V753Z" />
<glyph unicode="Q" horiz-adv-x="1722" d="M1579 -249Q1436 -220 1326 -190T1118 -122T906 -29H860Q689 -29 545 29T294 193T129 440T70 750Q70 918 128 1060T293 1308T544 1472T860 1530Q1031 1530 1175 1472T1424 1308T1589 1061T1648 750Q1648 592 1595 457T1447
218T1221 55Q1294 38 1361 26T1497 7T1645 -3L1579 -249ZM860 239Q961 239 1047 278T1198 386T1297 548T1333 750Q1333 859 1298 952T1198 1114T1048 1222T860 1261Q758 1261 672 1223T521 1115T421 952T385 750Q385 641 420 548T520 386T671 278T860 239Z" />
<glyph unicode="R" horiz-adv-x="1414" d="M1372 0H1031L716 542H430V0H122V1500H730Q911 1500 1040 1443T1237 1279T1306 1021Q1306 867 1234 759T1027 596L1372 0ZM430 787H707Q844 787 917 844T991 1009Q991 1116 918 1173T707 1231H430V787Z" />
<glyph unicode="S" horiz-adv-x="1230" d="M52 162L198 397Q267 341 331 306T459 254T588 237Q666 237 723 259T811 322T843 417Q843 480 803 523T699 598T559 661Q486 691 413 726T278 811T179 930T141 1102Q141 1234 207 1330T390 1478T655 1530Q760 1530 873
1502T1100 1417L979 1168Q908 1211 826 1236T672 1261Q607 1261 559 1241T483 1186T456 1102Q456 1045 495 1004T596 930T731 866Q805 834 880 796T1018 707T1119 584T1158 412Q1158 280 1088 181T893 26T602 -30Q450 -30 311 19T52 162Z" />
<glyph unicode="T" horiz-adv-x="1233" d="M770 0H462V1231H20V1500H1213V1231H770V0Z" />
<glyph unicode="U" horiz-adv-x="1554" d="M1432 1500V675Q1432 455 1354 297T1129 55T777 -30Q573 -30 426 54T201 297T122 675V1500H430V713Q430 556 469 451T586 293T777 239Q891 239 968 292T1084 451T1124 713V1500H1432Z" />
<glyph unicode="V" horiz-adv-x="1585" d="M956 0H630L32 1500H355L793 352L1229 1500H1553L956 0Z" />
<glyph unicode="W" horiz-adv-x="2207" d="M1693 0H1410L1105 992L799 0H516L28 1500H351L657 503L963 1500H1246L1551 505L1855 1500H2179L1693 0Z" />
<glyph unicode="X" horiz-adv-x="1581" d="M1553 0H1166L780 542L393 0H28L602 770L73 1500H460L801 1020L1134 1500H1511L980 778L1553 0Z" />
<glyph unicode="Y" horiz-adv-x="1476" d="M892 0H584V641L16 1500H390L736 912L1086 1500H1460L892 640V0Z" />
<glyph unicode="Z" horiz-adv-x="1286" d="M1216 0H70V228L799 1231H110V1500H1203V1262L482 269H1216V0Z" />
<glyph unicode="[" horiz-adv-x="667" d="M625 -289H122V1540H625V1313H372V-59H625V-289Z" />
<glyph unicode="\" horiz-adv-x="933" d="M921 -20H651L12 1520H283L921 -20Z" />
<glyph unicode="]" horiz-adv-x="667" d="M545 -289H42V-62H295V1313H42V1540H545V-289Z" />
<glyph unicode="^" horiz-adv-x="1076" d="M1034 700H814L538 1273L262 700H42L459 1500H617L1034 700Z" />
<glyph unicode="_" horiz-adv-x="1326" d="M1204 0H122V227H1204V0Z" />
<glyph unicode="`" horiz-adv-x="516" d="M454 1162H250L52 1500H312L454 1162Z" />
<glyph unicode="a" horiz-adv-x="1116" d="M1014 0H764L749 119Q694 53 613 17T435 -20Q330 -20 248 20T119 132T72 295Q72 391 123 464T263 578T467 620Q534 620 601 605T727 563V589Q727 649 694 692T602 760T471 784Q402 784 335 762T210 696L132 915Q233 967
336 993T537 1020Q683 1020 790 963T955 801T1014 553V0ZM498 201Q555 201 607 226T691 294T726 389V396Q682 426 629 442T520 459Q438 459 386 423T334 330Q334 293 355 264T414 218T498 201Z" />
<glyph unicode="b" horiz-adv-x="1273" d="M374 0H122V1500H409V886Q472 949 555 984T737 1020Q875 1020 982 953T1151 768T1213 500Q1213 351 1151 233T982 48T737 -20Q631 -20 542 21T388 136L374 0ZM664 237Q737 237 794 271T885 365T919 501Q919 576 886 635T795
729T664 763Q595 763 539 732T448 647T409 523V479Q414 409 448 355T538 269T664 237Z" />
<glyph unicode="c" horiz-adv-x="1062" d="M1008 159Q935 75 829 28T596 -20Q442 -20 321 47T130 233T60 500Q60 650 129 767T320 952T596 1020Q722 1020 828 973T1007 843L838 666Q799 711 740 736T615 762Q540 762 481 729T388 637T354 502Q354 425 388 365T481
272T615 238Q680 238 740 263T838 334L1008 159Z" />
<glyph unicode="d" horiz-adv-x="1274" d="M1152 0H900L885 136Q821 64 732 22T536 -20Q399 -20 292 47T122 233T60 500Q60 650 122 767T291 952T536 1020Q634 1020 718 985T865 886V1500H1152V0ZM610 237Q681 237 738 269T830 356T865 483V519Q865 590 831 645T739
731T610 763Q537 763 479 729T388 636T354 500Q354 425 387 366T479 272T610 237Z" />
<glyph unicode="e" horiz-adv-x="1166" d="M1043 112Q857 -20 636 -20Q472 -20 342 50T136 242T60 515Q60 660 128 774T315 954T583 1020Q738 1020 856 948T1040 746T1106 446V414H369Q387 355 427 311T529 240T670 214Q823 214 955 313L1043 112ZM356 560H841Q833
625 801 674T716 752T598 780Q532 780 481 751T397 673T356 560Z" />
<glyph unicode="f" horiz-adv-x="921" d="M490 0H203V744H28V1000H203V1156Q203 1264 254 1348T394 1481T598 1530Q670 1530 745 1510T893 1445L784 1222Q752 1248 717 1260T646 1273Q580 1273 535 1227T490 1100V1000H789V744H490V0Z" />
<glyph unicode="g" horiz-adv-x="1256" d="M531 -12Q396 -12 289 55T121 239T60 504Q60 653 121 769T289 952T532 1020Q638 1020 726 979T879 864L892 1000H1144V28Q1144 -138 1072 -261T867 -452T558 -520Q312 -520 112 -366L228 -132Q361 -263 538 -263Q633
-263 704 -225T816 -119T857 39V121Q795 59 712 24T531 -12ZM605 244Q675 244 732 274T823 359T857 483V526Q857 595 823 649T732 733T605 764Q533 764 476 730T386 638T353 504Q353 429 386 370T476 278T605 244Z" />
<glyph unicode="h" horiz-adv-x="1222" d="M122 0V1500H409V882Q517 1020 719 1020Q908 1020 1014 904T1120 578V0H833V502Q833 627 778 695T624 763Q523 763 466 694T409 502V0H122Z" />
<glyph unicode="i" horiz-adv-x="535" d="M267 1239Q210 1239 171 1279T132 1376Q132 1433 171 1472T267 1512Q325 1512 364 1473T404 1376Q404 1319 365 1279T267 1239ZM411 0H124V1000H411V0Z" />
<glyph unicode="j" horiz-adv-x="531" d="M271 1239Q214 1239 175 1279T136 1376Q136 1433 175 1472T271 1512Q328 1512 367 1473T407 1376Q407 1319 368 1279T271 1239ZM-147 -502V-276Q-131 -279 -117 -280T-89 -281Q12 -281 70 -216T128 -34V1000H415V-47Q415
-280 313 -400T15 -520Q-22 -520 -62 -516T-147 -502Z" />
<glyph unicode="k" horiz-adv-x="1228" d="M409 0H122V1500H409V578L507 696L795 1000H1154L731 555L1204 0H833L534 375L409 261V0Z" />
<glyph unicode="l" horiz-adv-x="551" d="M429 0H122V1540H429V0Z" />
<glyph unicode="m" horiz-adv-x="1851" d="M1749 0H1462V502Q1462 627 1413 695T1274 763Q1182 763 1131 694T1079 502V0H792V502Q792 627 743 695T603 763Q512 763 461 694T409 502V0H122V1000H351L361 835Q411 926 495 973T692 1020Q809 1020 894 971T1025 830Q1076
923 1160 971T1361 1020Q1544 1020 1646 904T1749 578V0Z" />
<glyph unicode="n" horiz-adv-x="1222" d="M1120 0H833V520Q833 634 780 698T632 762Q566 762 516 731T437 642T409 504V0H122V1000H354L364 840Q418 928 508 974T716 1020Q904 1020 1012 905T1120 588V0Z" />
<glyph unicode="o" horiz-adv-x="1191" d="M597 -20Q443 -20 321 47T130 232T60 500Q60 649 129 766T321 952T597 1020Q751 1020 871 952T1061 767T1131 500Q1131 350 1062 233T872 48T597 -20ZM596 237Q665 237 719 271T805 365T837 501Q837 576 806 635T720
728T596 763Q526 763 472 729T386 635T354 501Q354 425 385 366T471 272T596 237Z" />
<glyph unicode="p" horiz-adv-x="1274" d="M410 -500H122V1000H374L389 864Q453 937 542 978T738 1020Q876 1020 983 953T1152 768T1214 500Q1214 351 1152 233T983 48T738 -20Q640 -20 557 15T410 114V-500ZM665 238Q740 238 797 271T886 364T919 500Q919 577
887 636T797 729T666 763Q596 763 540 733T450 648T410 524V474Q415 406 449 353T539 269T665 238Z" />
<glyph unicode="q" horiz-adv-x="1274" d="M1152 -500H865V114Q802 51 718 16T535 -20Q399 -20 292 47T122 233T60 500Q60 650 122 767T291 952T535 1020Q641 1020 731 979T885 864L899 1000H1152V-500ZM610 238Q680 238 735 268T825 351T865 474V524Q860 594
826 648T737 732T610 762Q536 762 479 729T388 636T355 500Q355 424 387 365T478 272T610 238Z" />
<glyph unicode="r" horiz-adv-x="855" d="M409 0H122V1000H372L382 827Q432 918 518 969T715 1020Q747 1020 779 1016T846 1002L810 744Q744 763 685 763Q602 763 540 726T443 622T409 466V0Z" />
<glyph unicode="s" horiz-adv-x="894" d="M52 86L115 330Q145 297 195 269T304 225T415 208Q477 208 512 231T547 295Q547 328 524 350T461 390T373 425Q308 450 240 483T124 573T77 724Q77 814 124 880T257 983T457 1020Q642 1020 826 927L745 700Q713 725 665
746T567 781T476 794Q427 794 400 774T372 719Q372 693 391 673T447 634T540 594Q608 569 677 535T794 443T842 290Q842 197 792 127T650 19T435 -20Q230 -20 52 86Z" />
<glyph unicode="t" horiz-adv-x="865" d="M821 26Q706 -20 598 -20Q486 -20 401 27T267 160T219 358V744H44V1000H234V1250H506V1000H783V744H506V410Q506 328 551 283T663 237Q724 237 782 275L821 26Z" />
<glyph unicode="u" horiz-adv-x="1222" d="M1100 0H867L857 160Q804 72 717 26T512 -20Q320 -20 211 98T102 422V1000H389V488Q389 371 444 305T596 238Q696 238 754 307T813 496V1000H1100V0Z" />
<glyph unicode="v" horiz-adv-x="1178" d="M1136 1000L728 0H450L42 1000H349L590 290L831 1000H1136Z" />
<glyph unicode="w" horiz-adv-x="1678" d="M1327 0H999L839 617L679 0H351L28 1000H332L511 303L713 1000H964L1167 300L1346 1000H1650L1327 0Z" />
<glyph unicode="x" horiz-adv-x="1274" d="M406 0H12L440 512L34 1000H430L638 705L844 1000H1237L834 514L1262 0H865L636 325L406 0Z" />
<glyph unicode="y" horiz-adv-x="1292" d="M643 -500H337L545 1L40 1000H364L681 328L959 1000H1264L643 -500Z" />
<glyph unicode="z" horiz-adv-x="1106" d="M1046 0H60V144L559 743H87V1000H1011V878L493 257H1046V0Z" />
<glyph unicode="{" horiz-adv-x="658" d="M616 -289Q414 -289 310 -211T206 21V352Q206 438 159 500T42 568V683Q111 688 158 750T206 899V1230Q206 1384 310 1462T616 1540V1312Q532 1312 494 1279T456 1168V891Q456 801 412 731T292 626Q368 591 412 520T456
359V83Q456 7 494 -27T616 -61V-289Z" />
<glyph unicode="|" horiz-adv-x="494" d="M372 -250H122V1540H372V-250Z" />
<glyph unicode="}" horiz-adv-x="658" d="M42 -289V-61Q127 -61 164 -27T202 83V359Q202 449 246 520T366 626Q290 661 246 731T202 891V1168Q202 1245 165 1279T42 1313V1540Q245 1540 348 1462T452 1230V899Q452 813 499 751T616 683V568Q547 563 500 501T452
352V21Q452 -132 349 -210T42 -289Z" />
<glyph unicode="~" horiz-adv-x="1286" d="M1164 568Q1093 492 1026 456T888 420Q826 420 767 442T649 493Q590 520 530 543T406 567Q266 567 122 423V629Q269 773 408 773Q466 773 523 753T651 700Q709 673 768 650T890 627Q1028 627 1164 775V568Z" />
<glyph unicode="&#xa0;" horiz-adv-x="464" />
<glyph unicode="&#xa1;" horiz-adv-x="483" d="M241 754Q183 754 145 793T106 887Q106 943 144 981T241 1020Q299 1020 338 982T378 887Q378 832 339 793T241 754ZM358 -500H123L163 588H318L358 -500Z" />
<glyph unicode="&#xa2;" horiz-adv-x="1062" d="M1008 299Q950 231 867 186T685 127L691 -60H503L509 126Q378 145 277 215T118 395T60 640Q60 775 117 885T276 1065T509 1154L503 1340H691L685 1153Q783 1140 865 1096T1007 983L838 806Q799 851 741 877T617
903Q542 903 482 869T388 776T354 641Q354 566 388 506T481 411T616 377Q682 377 741 403T838 474L1008 299Z" />
<glyph unicode="&#xa3;" horiz-adv-x="1235" d="M937 666H567Q573 639 575 613T578 559Q578 472 552 398T471 257H1098V0H97V160Q216 223 286 322T356 548Q356 576 352 605T339 666H92V834H285Q258 907 243 967T228 1090Q228 1215 286 1312T446 1465T679 1520Q822
1520 944 1452T1143 1259L956 1120Q914 1189 854 1226T724 1264Q661 1264 613 1233T537 1148T510 1021Q510 980 516 938T540 834H937V666Z" />
<glyph unicode="&#xa4;" horiz-adv-x="1249" d="M1156 363L1044 251L884 414Q830 377 764 357T624 336Q550 336 485 356T364 414L205 251L92 364L256 523Q219 577 199 643T178 783Q178 856 198 922T255 1042L92 1201L205 1314L364 1151Q419 1189 485 1209T624
1230Q699 1230 764 1210T884 1151L1044 1315L1157 1202L993 1042Q1031 988 1050 923T1070 784Q1070 709 1050 643T992 523L1156 363ZM624 525Q694 525 748 558T834 650T865 783Q865 857 834 915T748 1007T624 1040Q555 1040 501 1007T416 916T384 783Q384 709 415
651T500 559T624 525Z" />
<glyph unicode="&#xa5;" horiz-adv-x="1304" d="M799 0H506V275H203V397H506V527H203V649H502L26 1500H361L651 874L943 1500H1278L807 649H1100V527H799V397H1100V275H799V0Z" />
<glyph unicode="&#xa6;" horiz-adv-x="494" d="M372 820H122V1540H372V820ZM372 -250H122V470H372V-250Z" />
<glyph unicode="&#xa7;" horiz-adv-x="1060" d="M137 3L233 220Q288 185 360 162T492 138Q554 138 590 164T627 235Q627 273 601 299T530 347T432 390Q362 419 291 455T171 550T122 702Q122 788 167 858T293 976Q253 1002 221 1035T170 1110T151 1209Q151 1303
204 1375T352 1489T568 1530Q754 1530 924 1437L826 1220Q772 1255 700 1278T569 1302Q506 1302 469 1276T432 1204Q432 1172 454 1147T520 1100T626 1051Q698 1022 769 985T889 890T938 738Q938 652 893 582T766 464Q807 438 839 405T890 330T909 231Q909 137
856 65T708 -49T492 -90Q306 -90 137 3ZM649 527Q682 550 701 584T720 661Q720 714 688 758T587 840T411 913Q378 890 359 856T340 781Q340 728 373 684T474 601T649 527Z" />
<glyph unicode="&#xa8;" horiz-adv-x="916" d="M687 1213Q633 1213 600 1246T567 1333Q567 1386 600 1419T687 1453Q741 1453 774 1420T807 1333Q807 1279 774 1246T687 1213ZM230 1213Q176 1213 143 1246T110 1333Q110 1386 143 1419T230 1453Q283 1453 316 1420T350
1333Q350 1279 317 1246T230 1213Z" />
<glyph unicode="&#xa9;" horiz-adv-x="1283" d="M642 -104Q469 -104 333 -27T120 186T42 495Q42 668 119 803T333 1015T642 1093Q815 1093 950 1016T1163 803T1241 495Q1241 322 1164 187T951 -26T642 -104ZM642 43Q772 43 873 101T1033 262T1091 494Q1091 624
1033 726T873 887T642 946Q513 946 411 888T251 727T192 494Q192 364 250 262T411 102T642 43ZM907 261Q807 168 659 168Q562 168 486 210T366 327T322 495Q322 590 365 663T485 779T659 822Q806 822 907 728L810 627Q785 656 749 671T668 687Q585 687 532 633T479
494Q479 410 532 357T668 303Q712 303 749 318T811 363L907 261Z" />
<glyph unicode="&#xaa;" horiz-adv-x="817" d="M695 810H544L537 905Q502 854 447 827T322 800Q214 800 143 859T72 1009Q72 1073 109 1124T211 1204T358 1233Q403 1233 446 1224T530 1196V1209Q530 1281 486 1322T364 1364Q316 1364 269 1348T181 1302L110 1432Q231
1520 386 1520Q529 1520 612 1447T695 1246V810ZM364 933Q409 933 447 951T507 998T530 1064V1098Q470 1140 393 1140Q326 1140 283 1109T240 1030Q240 987 274 960T364 933Z" />
<glyph unicode="&#xab;" horiz-adv-x="1204" d="M633 111H365L42 497L365 882H633L296 496L633 111ZM1082 111H815L492 497L815 882H1082L745 496L1082 111Z" />
<glyph unicode="&#xac;" horiz-adv-x="1057" d="M935 75H685V383H122V611H935V75Z" />
<glyph unicode="&#xad;" horiz-adv-x="1121" d="M999 374H122V601H999V374Z" />
<glyph unicode="&#xae;" horiz-adv-x="1283" d="M642 424Q469 424 333 501T120 714T42 1023Q42 1196 119 1331T333 1543T642 1621Q815 1621 950 1544T1163 1331T1241 1023Q1241 850 1164 715T951 502T642 424ZM642 571Q772 571 873 629T1033 789T1091 1021Q1091
1152 1033 1254T873 1415T642 1475Q513 1475 411 1416T251 1255T192 1021Q192 891 250 790T411 630T642 571ZM907 701H751L628 948H553V703H413V1345H660Q765 1345 827 1291T889 1146Q889 1082 858 1036T769 967L907 701ZM553 1066H630Q688 1066 717 1086T746 1148Q746
1188 717 1207T630 1227H553V1066Z" />
<glyph unicode="&#xaf;" horiz-adv-x="922" d="M800 1252H122V1415H800V1252Z" />
<glyph unicode="&#xb0;" horiz-adv-x="674" d="M337 930Q251 930 185 968T80 1073T42 1225Q42 1311 80 1377T184 1482T337 1520Q422 1520 488 1482T593 1378T632 1225Q632 1140 594 1073T489 968T337 930ZM337 1082Q395 1082 433 1122T471 1225Q471 1287 433 1327T337
1368Q277 1368 240 1328T202 1225Q202 1163 239 1123T337 1082Z" />
<glyph unicode="&#xb1;" horiz-adv-x="1121" d="M686 302H435V614H122V841H435V1148H686V841H999V614H686V302ZM999 0H122V220H999V0Z" />
<glyph unicode="&#xb2;" horiz-adv-x="730" d="M618 790H164V879Q273 977 337 1047T429 1171T458 1272Q458 1325 428 1357T347 1390Q306 1390 266 1367T200 1305L122 1399Q166 1455 234 1487T376 1520Q479 1520 545 1457T612 1294Q612 1234 585 1172T505 1048T373
922H618V790Z" />
<glyph unicode="&#xb3;" horiz-adv-x="698" d="M112 867L170 977Q246 920 318 920Q367 920 399 948T431 1018Q431 1064 391 1089T278 1114H245V1219H278Q336 1219 375 1246T414 1312Q414 1346 387 1368T317 1390Q257 1390 191 1339L124 1443Q210 1520 331 1520Q428
1520 491 1469T555 1338Q555 1283 524 1239T440 1171Q508 1151 547 1106T586 996Q586 908 514 849T332 790Q207 790 112 867Z" />
<glyph unicode="&#xb4;" horiz-adv-x="516" d="M266 1162H62L204 1500H464L266 1162Z" />
<glyph unicode="&#xb5;" horiz-adv-x="1305" d="M1269 -20Q1150 -20 1068 17T940 129Q888 58 810 19T636 -20Q485 -20 396 81V-500H124V1000H409V498Q409 378 466 308T618 237Q714 237 769 307T825 498V1000H1112V361Q1112 190 1285 190L1269 -20Z" />
<glyph unicode="&#xb6;" horiz-adv-x="1317" d="M1195 -150H996V1302H831V-150H633V644Q474 644 355 699T169 852T102 1083Q102 1211 166 1304T347 1449T625 1500H1195V-150Z" />
<glyph unicode="&#xb7;" horiz-adv-x="485" d="M242 394Q182 394 144 431T106 530Q106 591 144 628T242 666Q303 666 340 629T378 530Q378 469 341 432T242 394Z" />
<glyph unicode="&#xb8;" horiz-adv-x="551" d="M92 -393L134 -281Q173 -300 215 -300Q260 -300 289 -277T318 -217Q318 -180 288 -157T201 -134Q196 -134 190 -134T178 -135L233 7H338L294 -92Q368 -100 412 -141T457 -247Q457 -324 396 -374T239 -425Q167 -425 92 -393Z" />
<glyph unicode="&#xb9;" horiz-adv-x="492" d="M370 780H210V1350L89 1306L42 1427L241 1500H370V780Z" />
<glyph unicode="&#xba;" horiz-adv-x="809" d="M405 800Q301 800 219 847T89 975T42 1160Q42 1264 89 1345T218 1473T406 1520Q510 1520 591 1474T720 1346T767 1160Q767 1056 720 975T592 847T405 800ZM406 948Q463 948 507 975T577 1051T603 1160Q603 1222 578
1270T508 1345T406 1372Q348 1372 303 1345T232 1269T206 1160Q206 1099 232 1051T303 976T406 948Z" />
<glyph unicode="&#xbb;" horiz-adv-x="1204" d="M390 111H122L459 496L122 882H390L713 497L390 111ZM839 111H572L909 496L572 882H839L1162 497L839 111Z" />
<glyph unicode="&#xbc;" horiz-adv-x="1643" d="M405 0H224L1247 1540H1421L405 0ZM420 780H260V1350L139 1306L92 1427L291 1500H420V780ZM1464 0H1312V146H969V262L1314 720H1464V279H1551V146H1464V0ZM1104 279H1312V555L1104 279Z" />
<glyph unicode="&#xbd;" horiz-adv-x="1688" d="M405 0H224L1247 1540H1421L405 0ZM420 780H260V1350L139 1306L92 1427L291 1500H420V780ZM1596 0H1134V87Q1247 189 1312 259T1406 382T1434 483Q1434 539 1404 572T1326 606Q1250 606 1197 527L1118 625Q1160
680 1223 710T1354 740Q1452 740 1521 679T1591 512Q1591 447 1562 383T1480 256T1351 135H1596V0Z" />
<glyph unicode="&#xbe;" horiz-adv-x="1645" d="M407 0H227L1250 1540H1423L407 0ZM92 861L150 972Q225 917 291 917Q340 917 371 944T402 1013Q402 1059 363 1085T254 1112H225V1218H250Q309 1218 347 1244T385 1310Q385 1343 359 1365T292 1388Q237 1388 170
1341L104 1445Q191 1520 307 1520Q403 1520 465 1470T528 1340Q528 1284 496 1238T408 1168Q479 1148 519 1101T560 990Q560 902 488 844T307 785Q186 785 92 861ZM1467 0H1314V146H971V262L1316 720H1467V279H1553V146H1467V0ZM1106 279H1314V555L1106 279Z" />
<glyph unicode="&#xbf;" horiz-adv-x="935" d="M562 1030Q623 1030 660 993T698 894Q698 833 661 796T562 758Q501 758 464 795T426 894Q426 955 463 992T562 1030ZM779 -149L893 -382Q709 -520 487 -520Q361 -520 268 -477T123 -353T72 -163Q72 -86 95 -31T156
69T236 156Q285 206 331 263T408 400T439 598H685Q685 452 654 357T577 198T489 88Q445 39 414 -5T383 -110Q383 -181 429 -224T552 -267Q616 -267 676 -236T779 -149Z" />
<glyph unicode="&#xc0;" horiz-adv-x="1568" d="M882 1662H677L479 2000H740L882 1662ZM347 0H24L622 1500H947L1544 0H1221L1098 322H470L347 0ZM571 592H998L784 1148L571 592Z" />
<glyph unicode="&#xc1;" horiz-adv-x="1568" d="M897 1662H693L835 2000H1096L897 1662ZM347 0H24L622 1500H947L1544 0H1221L1098 322H470L347 0ZM571 592H998L784 1148L571 592Z" />
<glyph unicode="&#xc2;" horiz-adv-x="1568" d="M1121 1662H910L784 1883L658 1662H447L667 2000H902L1121 1662ZM347 0H24L622 1500H947L1544 0H1221L1098 322H470L347 0ZM571 592H998L784 1148L571 592Z" />
<glyph unicode="&#xc3;" horiz-adv-x="1568" d="M1160 1967Q1156 1841 1102 1776T944 1710Q882 1710 840 1731T759 1781Q731 1803 701 1819T631 1835Q526 1835 516 1718H409Q417 1977 627 1977Q695 1977 740 1955T820 1906Q851 1884 881 1868T948 1852Q1043 1852
1053 1967H1160ZM347 0H24L622 1500H947L1544 0H1221L1098 322H470L347 0ZM571 592H998L784 1148L571 592Z" />
<glyph unicode="&#xc4;" horiz-adv-x="1568" d="M347 0H24L622 1500H947L1544 0H1221L1098 322H470L347 0ZM571 592H998L784 1148L571 592ZM1014 1713Q960 1713 927 1746T894 1833Q894 1886 927 1919T1014 1953Q1068 1953 1101 1920T1134 1833Q1134 1779 1101
1746T1014 1713ZM557 1713Q503 1713 470 1746T437 1833Q437 1886 470 1919T557 1953Q610 1953 643 1920T677 1833Q677 1779 644 1746T557 1713Z" />
<glyph unicode="&#xc5;" horiz-adv-x="1569" d="M784 1580Q684 1580 623 1639T561 1795Q561 1891 622 1950T784 2010Q884 2010 945 1951T1006 1795Q1006 1698 945 1639T784 1580ZM784 1694Q829 1694 856 1721T883 1795Q883 1840 856 1867T784 1895Q739 1895 712
1868T685 1795Q685 1750 712 1722T784 1694ZM347 0H24L622 1500H947L1545 0H1221L1098 322H470L347 0ZM571 592H998L784 1148L571 592Z" />
<glyph unicode="&#xc6;" horiz-adv-x="2223" d="M2151 0H1189L1147 312H532L370 0H20L822 1500H1946L1983 1231H1331L1378 889H1995L2032 620H1414L1462 269H2114L2151 0ZM672 582H1110L1019 1249H1015L672 582Z" />
<glyph unicode="&#xc7;" horiz-adv-x="1500" d="M1422 188Q1327 96 1200 40T924 -28L895 -92Q969 -100 1013 -141T1058 -247Q1058 -324 997 -374T840 -425Q768 -425 693 -393L736 -281Q775 -300 816 -300Q861 -300 890 -277T919 -217Q919 -180 889 -157T802 -134Q797
-134 791 -134T779 -135L820 -29Q658 -22 521 39T282 204T126 448T70 750Q70 918 129 1060T294 1308T545 1471T860 1530Q1028 1530 1171 1472T1420 1311L1205 1095Q1142 1172 1052 1216T855 1261Q754 1261 669 1223T519 1115T420 952T385 751Q385 641 420 548T519
386T668 278T855 239Q961 239 1051 283T1204 405L1422 188Z" />
<glyph unicode="&#xc8;" horiz-adv-x="1212" d="M740 1662H536L338 2000H598L740 1662ZM122 0V1500H1090V1231H430V890H1049V620H430V269H1100V0H122Z" />
<glyph unicode="&#xc9;" horiz-adv-x="1212" d="M687 1662H484L625 2000H885L687 1662ZM122 0V1500H1090V1231H430V890H1049V620H430V269H1100V0H122Z" />
<glyph unicode="&#xca;" horiz-adv-x="1212" d="M949 1662H737L611 1883L486 1662H274L495 2000H729L949 1662ZM122 0V1500H1090V1231H430V890H1049V620H430V269H1100V0H122Z" />
<glyph unicode="&#xcb;" horiz-adv-x="1212" d="M122 0V1500H1090V1231H430V890H1049V620H430V269H1100V0H122ZM835 1713Q781 1713 748 1746T715 1833Q715 1886 748 1919T835 1953Q889 1953 922 1920T955 1833Q955 1779 922 1746T835 1713ZM378 1713Q324 1713
291 1746T258 1833Q258 1886 291 1919T378 1953Q431 1953 464 1920T498 1833Q498 1779 465 1746T378 1713Z" />
<glyph unicode="&#xcc;" horiz-adv-x="552" d="M386 1662L244 2000H-16L182 1662H386ZM430 1500H122V0H430V1500Z" />
<glyph unicode="&#xcd;" horiz-adv-x="552" d="M381 1662L579 2000H319L177 1662H381ZM430 1500H122V0H430V1500Z" />
<glyph unicode="&#xce;" horiz-adv-x="553" d="M614 1662L393 2000H160L-61 1662H150L276 1883L402 1662H614ZM431 1500H123V0H431V1500Z" />
<glyph unicode="&#xcf;" horiz-adv-x="552" d="M430 1500H122V0H430V1500ZM505 1713Q451 1713 418 1746T385 1833Q385 1886 418 1919T505 1953Q559 1953 592 1920T625 1833Q625 1779 592 1746T505 1713ZM48 1713Q-6 1713 -39 1746T-72 1833Q-72 1886 -39 1919T48
1953Q101 1953 134 1920T168 1833Q168 1779 135 1746T48 1713Z" />
<glyph unicode="&#xd0;" horiz-adv-x="1614" d="M193 0V635H12V855H193V1500H684Q956 1500 1155 1408T1463 1148T1572 750Q1572 521 1463 353T1155 92T684 0H193ZM812 635H501V269H695Q875 269 1000 325T1191 489T1257 750Q1257 904 1192 1011T1001 1174T695 1231H501V855H812V635Z"
/>
<glyph unicode="&#xd1;" horiz-adv-x="1607" d="M1195 1967Q1192 1841 1138 1776T981 1710Q918 1710 877 1731T797 1780Q767 1802 737 1818T667 1835Q562 1835 552 1718H445Q452 1977 663 1977Q731 1977 775 1954T857 1905Q888 1885 917 1869T983 1852Q1079 1852
1089 1967H1195ZM1485 0H1131L430 1024V0H122V1500H476L1177 474V1500H1485V0Z" />
<glyph unicode="&#xd2;" horiz-adv-x="1718" d="M980 1662H776L578 2000H838L980 1662ZM860 -30Q689 -30 545 28T294 192T129 440T70 750Q70 918 128 1060T293 1308T544 1472T860 1530Q1031 1530 1175 1472T1424 1308T1589 1061T1648 750Q1648 582 1590 440T1425
192T1175 29T860 -30ZM860 239Q961 239 1047 278T1198 386T1297 548T1333 750Q1333 859 1298 952T1198 1114T1048 1222T860 1261Q758 1261 672 1223T521 1115T421 952T385 750Q385 641 420 548T520 386T671 278T860 239Z" />
<glyph unicode="&#xd3;" horiz-adv-x="1718" d="M942 1662H739L880 2000H1141L942 1662ZM860 -30Q689 -30 545 28T294 192T129 439T70 750Q70 919 128 1061T294 1308T545 1472T860 1530Q1031 1530 1175 1472T1425 1308T1589 1061T1648 750Q1648 582 1590 440T1425
193T1175 29T860 -30ZM860 239Q961 239 1047 278T1198 386T1297 548T1333 750Q1333 859 1298 952T1198 1114T1048 1222T860 1261Q758 1261 672 1223T521 1115T421 952T385 750Q385 641 420 548T520 386T671 278T860 239Z" />
<glyph unicode="&#xd4;" horiz-adv-x="1718" d="M1196 1662H985L859 1883L733 1662H522L742 2000H976L1196 1662ZM860 -30Q689 -30 545 28T294 192T129 439T70 750Q70 919 128 1061T294 1308T545 1472T860 1530Q1031 1530 1175 1472T1425 1308T1589 1061T1648
750Q1648 582 1590 440T1425 193T1175 29T860 -30ZM860 239Q961 239 1047 278T1198 386T1297 548T1333 750Q1333 859 1298 952T1198 1114T1048 1222T860 1261Q758 1261 672 1223T521 1115T421 952T385 750Q385 641 420 548T520 386T671 278T860 239Z" />
<glyph unicode="&#xd5;" horiz-adv-x="1718" d="M1234 1967Q1231 1841 1177 1776T1019 1710Q957 1710 915 1731T834 1781Q806 1803 776 1819T705 1835Q601 1835 590 1718H484Q491 1977 701 1977Q769 1977 814 1955T895 1906Q926 1884 955 1868T1022 1852Q1117
1852 1128 1967H1234ZM860 -30Q689 -30 545 28T294 192T129 440T70 750Q70 918 128 1060T293 1308T544 1472T860 1530Q1031 1530 1175 1472T1424 1308T1589 1061T1648 750Q1648 582 1590 440T1425 192T1175 29T860 -30ZM860 239Q961 239 1047 278T1198 386T1297
548T1333 750Q1333 859 1298 952T1198 1114T1048 1222T860 1261Q758 1261 672 1223T521 1115T421 952T385 750Q385 641 420 548T520 386T671 278T860 239Z" />
<glyph unicode="&#xd6;" horiz-adv-x="1718" d="M860 -30Q689 -30 545 28T294 192T129 440T70 750Q70 918 128 1060T293 1308T544 1472T860 1530Q1031 1530 1175 1472T1424 1308T1589 1061T1648 750Q1648 582 1590 440T1425 192T1175 29T860 -30ZM860 239Q961
239 1047 278T1198 386T1297 548T1333 750Q1333 859 1298 952T1198 1114T1048 1222T860 1261Q758 1261 672 1223T521 1115T421 952T385 750Q385 641 420 548T520 386T671 278T860 239ZM1088 1713Q1034 1713 1001 1746T968 1833Q968 1886 1001 1919T1088 1953Q1142
1953 1175 1920T1208 1833Q1208 1779 1175 1746T1088 1713ZM631 1713Q577 1713 544 1746T511 1833Q511 1886 544 1919T631 1953Q684 1953 717 1920T751 1833Q751 1779 718 1746T631 1713Z" />
<glyph unicode="&#xd7;" horiz-adv-x="1078" d="M819 49L539 330L259 49L98 210L378 490L98 770L259 931L538 651L819 931L980 770L700 490L980 210L819 49Z" />
<glyph unicode="&#xd8;" horiz-adv-x="1717" d="M590 -91L463 -35L498 49Q368 111 272 214T123 454T70 750Q70 918 128 1060T293 1308T544 1471T860 1530Q923 1530 983 1522T1099 1497L1136 1585L1262 1535L1226 1448Q1355 1386 1449 1282T1595 1043T1647 750Q1647
582 1589 440T1425 193T1175 29T860 -30Q798 -30 740 -22T627 1L590 -91ZM608 315L993 1241Q962 1251 928 1256T859 1261Q758 1261 671 1223T520 1115T421 952T385 750Q385 656 412 573T490 424T608 315ZM859 239Q961 239 1047 278T1197 386T1296 548T1332 750Q1332
844 1306 925T1231 1072T1116 1181L733 257Q764 248 795 244T859 239Z" />
<glyph unicode="&#xd9;" horiz-adv-x="1554" d="M899 1662H694L497 2000H757L899 1662ZM1432 1500V675Q1432 455 1354 297T1129 55T777 -30Q573 -30 426 54T201 297T122 675V1500H430V713Q430 556 469 451T586 293T777 239Q891 239 968 292T1084 451T1124 713V1500H1432Z" />
<glyph unicode="&#xda;" horiz-adv-x="1554" d="M861 1662H657L798 2000H1059L861 1662ZM1432 1500V675Q1432 455 1354 297T1129 55T777 -30Q573 -30 426 54T201 297T122 675V1500H430V713Q430 556 469 451T586 293T777 239Q891 239 968 292T1084 451T1124 713V1500H1432Z"
/>
<glyph unicode="&#xdb;" horiz-adv-x="1554" d="M1114 1662H903L777 1883L651 1662H441L660 2000H895L1114 1662ZM1432 1500V675Q1432 455 1354 297T1129 55T777 -30Q573 -30 426 54T201 297T122 675V1500H430V713Q430 556 469 451T586 293T777 239Q891 239 968
292T1084 451T1124 713V1500H1432Z" />
<glyph unicode="&#xdc;" horiz-adv-x="1554" d="M1432 1500V675Q1432 455 1354 297T1129 55T777 -30Q573 -30 426 54T201 297T122 675V1500H430V713Q430 556 469 451T586 293T777 239Q891 239 968 292T1084 451T1124 713V1500H1432ZM1006 1713Q952 1713 919 1746T886
1833Q886 1886 919 1919T1006 1953Q1060 1953 1093 1920T1126 1833Q1126 1779 1093 1746T1006 1713ZM549 1713Q495 1713 462 1746T429 1833Q429 1886 462 1919T549 1953Q602 1953 635 1920T669 1833Q669 1779 636 1746T549 1713Z" />
<glyph unicode="&#xdd;" horiz-adv-x="1475" d="M821 1662H617L759 2000H1020L821 1662ZM891 0H583V641L16 1500H390L736 912L1085 1500H1459L891 640V0Z" />
<glyph unicode="&#xde;" horiz-adv-x="1230" d="M410 0H122V1500H410V1200H622Q776 1200 889 1145T1065 990T1128 753Q1128 616 1065 514T889 356T622 300H410V0ZM410 556H562Q697 556 765 605T834 750Q834 845 765 894T562 943H410V556Z" />
<glyph unicode="&#xdf;" horiz-adv-x="1243" d="M430 0H122V1086Q122 1219 183 1318T354 1474T609 1530Q753 1530 863 1481T1035 1344T1098 1142Q1098 1066 1072 1015T1010 930T938 871Q908 849 887 829T865 784Q865 758 890 739T962 692Q1000 670 1037 644T1104
584T1153 503T1171 390Q1171 267 1102 175T909 31T620 -20L564 242Q658 242 727 268T833 344T871 457Q871 508 850 542T796 599T729 642Q684 668 649 697T613 779Q613 821 636 846T692 897Q718 916 742 938T782 992T798 1073Q798 1130 776 1172T712 1237T617 1261Q530
1261 480 1199T430 1025V0Z" />
<glyph unicode="&#xe0;" horiz-adv-x="1116" d="M689 1162H485L287 1500H547L689 1162ZM1014 0H764L749 119Q694 53 613 17T435 -20Q330 -20 248 20T119 132T72 295Q72 391 123 464T263 578T467 620Q534 620 601 605T727 563V589Q727 649 694 692T602 760T469
784Q402 784 335 762T210 696L132 915Q233 967 336 993T537 1020Q683 1020 790 963T955 801T1014 553V0ZM496 201Q556 201 608 228T693 298T726 393V396Q684 426 631 442T522 459Q438 459 386 423T334 330Q334 293 355 264T413 218T496 201Z" />
<glyph unicode="&#xe1;" horiz-adv-x="1116" d="M649 1162H445L587 1500H847L649 1162ZM1014 0H764L749 119Q694 53 613 17T435 -20Q330 -20 248 20T119 132T72 295Q72 391 123 464T263 578T467 620Q534 620 601 605T727 563V589Q727 649 694 692T602 760T469
784Q402 784 335 762T210 696L132 915Q233 967 336 993T537 1020Q683 1020 790 963T955 801T1014 553V0ZM496 201Q556 201 608 228T693 298T726 393V396Q684 426 631 442T522 459Q438 459 386 423T334 330Q334 293 355 264T413 218T496 201Z" />
<glyph unicode="&#xe2;" horiz-adv-x="1116" d="M899 1162H687L561 1383L436 1162H225L445 1500H679L899 1162ZM1014 0H764L749 119Q694 53 613 17T435 -20Q330 -20 248 20T119 132T72 295Q72 391 123 464T263 578T467 620Q534 620 601 605T727 563V589Q727 649
694 692T602 760T469 784Q402 784 335 762T210 696L132 915Q233 967 336 993T537 1020Q683 1020 790 963T955 801T1014 553V0ZM496 201Q556 201 608 228T693 298T726 393V396Q684 426 631 442T522 459Q438 459 386 423T334 330Q334 293 355 264T413 218T496 201Z"
/>
<glyph unicode="&#xe3;" horiz-adv-x="1116" d="M933 1467Q930 1341 876 1276T718 1210Q656 1210 614 1231T533 1281Q505 1303 475 1319T404 1335Q300 1335 290 1218H183Q190 1477 401 1477Q469 1477 513 1455T594 1406Q625 1384 655 1368T722 1352Q817 1352 827
1467H933ZM1014 0H764L749 119Q694 53 613 17T435 -20Q330 -20 248 20T119 132T72 295Q72 391 123 464T263 578T467 620Q534 620 601 605T727 563V589Q727 649 694 692T602 760T469 784Q402 784 335 762T210 696L132 915Q233 967 336 993T537 1020Q683 1020 790
963T955 801T1014 553V0ZM496 201Q556 201 608 228T692 298T726 393V396Q684 426 631 442T522 459Q438 459 386 423T334 330Q334 293 355 264T413 218T496 201Z" />
<glyph unicode="&#xe4;" horiz-adv-x="1116" d="M1014 0H764L749 119Q694 53 613 17T435 -20Q330 -20 248 20T119 132T72 295Q72 391 123 464T263 578T467 620Q534 620 601 605T727 563V589Q727 649 694 692T602 760T471 784Q402 784 335 762T210 696L132 915Q233
967 336 993T537 1020Q683 1020 790 963T955 801T1014 553V0ZM498 201Q555 201 607 226T691 294T726 389V396Q682 426 629 442T520 459Q438 459 386 423T334 330Q334 293 355 264T414 218T498 201ZM807 1213Q753 1213 720 1246T687 1333Q687 1386 720 1419T807
1453Q861 1453 894 1420T927 1333Q927 1279 894 1246T807 1213ZM350 1213Q296 1213 263 1246T230 1333Q230 1386 263 1419T350 1453Q403 1453 436 1420T470 1333Q470 1279 437 1246T350 1213Z" />
<glyph unicode="&#xe5;" horiz-adv-x="1116" d="M562 1090Q462 1090 401 1149T340 1305Q340 1402 401 1461T562 1520Q662 1520 723 1461T784 1305Q784 1209 723 1150T562 1090ZM562 1205Q607 1205 634 1232T662 1305Q662 1350 635 1378T562 1406Q517 1406 490
1378T463 1305Q463 1260 490 1233T562 1205ZM1014 0H764L749 119Q694 53 613 17T435 -20Q330 -20 248 20T119 132T72 295Q72 391 123 464T263 578T467 620Q534 620 601 605T727 563V589Q727 649 694 692T602 760T469 784Q402 784 335 762T210 696L132 915Q233 967
336 993T537 1020Q683 1020 790 963T955 801T1014 553V0ZM496 201Q556 201 608 228T693 298T726 393V396Q684 426 631 442T522 459Q438 459 386 423T334 330Q334 293 355 264T413 218T496 201Z" />
<glyph unicode="&#xe6;" horiz-adv-x="1821" d="M1699 111Q1525 -20 1311 -20Q1178 -20 1065 33T877 181Q838 118 778 73T642 4T476 -20Q358 -20 267 21T124 135T72 302Q72 397 125 471T273 589T487 632Q625 632 746 572L744 580Q728 668 654 721T470 774Q324
774 194 686L120 915Q214 967 309 993T494 1020Q618 1020 714 972T869 834Q939 923 1042 971T1266 1020Q1414 1020 1525 949T1699 749T1761 450V419H1025Q1044 358 1086 313T1190 243T1324 218Q1477 218 1611 318L1699 111ZM1012 551H1496Q1487 614 1454 661T1370
735T1254 762Q1190 762 1139 736T1054 662T1012 551ZM753 402Q714 435 658 453T538 471Q477 471 431 454T360 407T334 335Q334 297 357 266T422 218T519 201Q578 201 627 221T709 281T749 376L753 402Z" />
<glyph unicode="&#xe7;" horiz-adv-x="1062" d="M1008 159Q943 82 851 37T647 -18L613 -92Q687 -100 731 -141T776 -247Q776 -324 715 -374T558 -425Q486 -425 411 -393L453 -281Q492 -300 534 -300Q579 -300 608 -277T637 -217Q637 -180 607 -157T520 -134Q515
-134 509 -134T497 -135L543 -18Q402 -5 293 64T122 246T60 500Q60 650 129 767T320 952T596 1020Q722 1020 828 973T1007 843L838 666Q799 711 740 736T615 762Q540 762 481 729T388 637T354 502Q354 425 388 365T481 272T615 238Q680 238 740 263T838 334L1008
159Z" />
<glyph unicode="&#xe8;" horiz-adv-x="1166" d="M1043 112Q857 -20 636 -20Q472 -20 342 50T136 242T60 515Q60 660 128 774T315 954T583 1020Q738 1020 856 948T1040 746T1106 446V414H369Q387 355 427 311T529 240T670 214Q823 214 955 313L1043 112ZM356 560H841Q833
625 801 674T716 752T598 780Q532 780 481 751T397 673T356 560ZM714 1162H510L312 1500H572L714 1162Z" />
<glyph unicode="&#xe9;" horiz-adv-x="1166" d="M1043 112Q857 -20 636 -20Q472 -20 342 50T136 242T60 515Q60 660 128 774T315 954T583 1020Q738 1020 856 948T1040 746T1106 446V414H369Q387 355 427 311T529 240T670 214Q823 214 955 313L1043 112ZM356 560H841Q833
625 801 674T716 752T598 780Q532 780 481 751T397 673T356 560ZM686 1162H482L624 1500H884L686 1162Z" />
<glyph unicode="&#xea;" horiz-adv-x="1166" d="M1043 112Q857 -20 636 -20Q472 -20 342 50T136 242T60 515Q60 660 128 774T315 954T583 1020Q738 1020 856 948T1040 746T1106 446V414H369Q387 355 427 311T529 240T670 214Q823 214 955 313L1043 112ZM356 560H841Q833
625 801 674T716 752T598 780Q532 780 481 751T397 673T356 560ZM920 1162H709L583 1383L457 1162H246L466 1500H700L920 1162Z" />
<glyph unicode="&#xeb;" horiz-adv-x="1166" d="M1043 112Q857 -20 636 -20Q472 -20 342 50T136 242T60 515Q60 660 128 774T315 954T583 1020Q738 1020 856 948T1040 746T1106 446V414H369Q387 355 427 311T529 240T670 214Q823 214 955 313L1043 112ZM356 560H841Q833
625 801 674T716 752T598 780Q532 780 481 751T397 673T356 560ZM812 1213Q758 1213 725 1246T692 1333Q692 1386 725 1419T812 1453Q866 1453 899 1420T932 1333Q932 1279 899 1246T812 1213ZM355 1213Q301 1213 268 1246T235 1333Q235 1386 268 1419T355 1453Q408
1453 441 1420T475 1333Q475 1279 442 1246T355 1213Z" />
<glyph unicode="&#xec;" horiz-adv-x="532" d="M383 1162H179L-20 1500H241L383 1162ZM410 0H123V1000H410V0Z" />
<glyph unicode="&#xed;" horiz-adv-x="531" d="M355 1162H151L292 1500H552L355 1162ZM409 0H122V1000H409V0Z" />
<glyph unicode="&#xee;" horiz-adv-x="531" d="M603 1162H392L266 1383L140 1162H-71L149 1500H384L603 1162ZM409 0H122V1000H409V0Z" />
<glyph unicode="&#xef;" horiz-adv-x="531" d="M409 0H122V1000H409V0ZM495 1213Q441 1213 408 1246T375 1333Q375 1386 408 1419T495 1453Q549 1453 582 1420T615 1333Q615 1279 582 1246T495 1213ZM38 1213Q-16 1213 -49 1246T-82 1333Q-82 1386 -49 1419T38
1453Q91 1453 124 1420T158 1333Q158 1279 125 1246T38 1213Z" />
<glyph unicode="&#xf0;" horiz-adv-x="1171" d="M1049 1265L875 1197Q997 1058 1063 895T1129 555Q1129 377 1064 246T881 42T601 -30Q449 -30 329 34T141 210T72 467Q72 599 129 700T288 859T521 917Q618 917 698 884T834 791Q803 874 752 955T629 1106L332 986L286
1100L531 1198Q485 1232 442 1258T341 1308L463 1500Q550 1455 629 1403T776 1292L1003 1379L1049 1265ZM600 239Q660 239 708 271T783 357T811 480Q811 549 783 602T707 687T596 718Q536 718 489 688T415 605T388 485Q388 416 416 360T492 272T600 239Z" />
<glyph unicode="&#xf1;" horiz-adv-x="1222" d="M997 1467Q994 1341 940 1276T783 1210Q720 1210 679 1231T599 1280Q569 1302 539 1318T469 1335Q364 1335 354 1218H247Q255 1477 465 1477Q533 1477 577 1454T659 1405Q690 1385 719 1369T786 1352Q881 1352 891
1467H997ZM1120 0H833V512Q833 629 778 695T626 762Q526 762 468 693T409 504V0H122V1000H354L364 840Q418 928 505 974T710 1020Q901 1020 1010 903T1120 578V0Z" />
<glyph unicode="&#xf2;" horiz-adv-x="1191" d="M717 1162H513L315 1500H575L717 1162ZM597 -20Q443 -20 321 47T130 233T60 500Q60 650 129 767T321 952T597 1020Q751 1020 871 953T1061 768T1131 500Q1131 351 1062 233T872 48T597 -20ZM596 237Q665 237 719
271T805 366T837 502Q837 576 806 635T720 729T596 763Q526 763 472 729T386 636T354 502Q354 426 385 366T471 272T596 237Z" />
<glyph unicode="&#xf3;" horiz-adv-x="1191" d="M679 1162H475L617 1500H878L679 1162ZM597 -20Q443 -20 321 47T130 233T60 500Q60 650 129 767T321 952T597 1020Q751 1020 871 953T1061 768T1131 500Q1131 351 1062 233T872 48T597 -20ZM596 237Q665 237 719
271T805 366T837 502Q837 576 806 635T720 729T596 763Q526 763 472 729T386 636T354 502Q354 426 385 366T471 272T596 237Z" />
<glyph unicode="&#xf4;" horiz-adv-x="1191" d="M933 1162H722L596 1383L470 1162H259L479 1500H713L933 1162ZM597 -20Q443 -20 321 47T130 233T60 500Q60 650 129 767T321 952T597 1020Q751 1020 871 953T1061 768T1131 500Q1131 351 1062 233T872 48T597 -20ZM596
237Q665 237 719 271T805 366T837 502Q837 576 806 635T720 729T596 763Q526 763 472 729T386 636T354 502Q354 426 385 366T471 272T596 237Z" />
<glyph unicode="&#xf5;" horiz-adv-x="1191" d="M961 1467Q958 1341 904 1276T747 1210Q684 1210 643 1231T563 1280Q533 1302 503 1318T433 1335Q328 1335 318 1218H211Q219 1477 429 1477Q497 1477 541 1454T623 1405Q654 1385 683 1369T750 1352Q845 1352 855
1467H961ZM597 -20Q443 -20 321 47T130 233T60 500Q60 650 129 767T321 952T597 1020Q751 1020 871 953T1061 768T1131 500Q1131 351 1062 233T872 48T597 -20ZM596 237Q665 237 719 271T805 366T837 502Q837 576 806 635T720 729T596 763Q526 763 472 729T386
636T354 502Q354 426 385 366T471 272T596 237Z" />
<glyph unicode="&#xf6;" horiz-adv-x="1191" d="M597 -20Q443 -20 321 47T130 232T60 500Q60 649 129 766T321 952T597 1020Q751 1020 871 952T1061 767T1131 500Q1131 350 1062 233T872 48T597 -20ZM596 237Q665 237 719 271T805 365T837 501Q837 576 806 635T720
728T596 763Q526 763 472 729T386 635T354 501Q354 425 385 366T471 272T596 237ZM819 1213Q765 1213 732 1246T699 1333Q699 1386 732 1419T819 1453Q873 1453 906 1420T939 1333Q939 1279 906 1246T819 1213ZM362 1213Q308 1213 275 1246T242 1333Q242 1386 275
1419T362 1453Q415 1453 448 1420T482 1333Q482 1279 449 1246T362 1213Z" />
<glyph unicode="&#xf7;" horiz-adv-x="1044" d="M522 707Q465 707 426 746T387 843Q387 900 426 940T522 980Q580 980 619 940T659 843Q659 786 620 747T522 707ZM922 400H122V560H922V400ZM522 -20Q465 -20 426 20T387 117Q387 173 426 213T522 253Q580 253 619
213T659 117Q659 60 620 20T522 -20Z" />
<glyph unicode="&#xf8;" horiz-adv-x="1191" d="M415 -74L319 -35L348 34Q217 97 139 219T60 500Q60 650 129 767T321 952T597 1020Q636 1020 674 1016T747 1001L775 1069L871 1029L845 966Q976 904 1053 781T1131 500Q1131 351 1062 233T872 48T597 -20Q557 -20
519 -16T445 -1L415 -74ZM453 288L647 757Q623 763 596 763Q526 763 472 729T386 636T354 502Q354 433 380 378T453 288ZM596 237Q665 237 719 271T805 366T837 502Q837 568 811 623T740 712L546 243Q568 237 596 237Z" />
<glyph unicode="&#xf9;" horiz-adv-x="1222" d="M728 1162H523L326 1500H586L728 1162ZM1100 0H867L857 160Q804 72 717 26T512 -20Q320 -20 211 98T102 422V1000H389V488Q389 371 444 305T596 238Q696 238 754 307T813 496V1000H1100V0Z" />
<glyph unicode="&#xfa;" horiz-adv-x="1222" d="M631 1162H426L568 1500H828L631 1162ZM1100 0H867L857 160Q804 72 717 26T512 -20Q320 -20 211 98T102 422V1000H389V488Q389 371 444 305T596 238Q696 238 754 307T813 496V1000H1100V0Z" />
<glyph unicode="&#xfb;" horiz-adv-x="1222" d="M881 1162H670L543 1383L418 1162H207L427 1500H661L881 1162ZM1100 0H867L857 160Q804 72 717 26T512 -20Q320 -20 211 98T102 422V1000H389V488Q389 371 444 305T596 238Q696 238 754 307T813 496V1000H1100V0Z" />
<glyph unicode="&#xfc;" horiz-adv-x="1222" d="M1100 0H867L857 160Q804 72 717 26T512 -20Q320 -20 211 98T102 422V1000H389V488Q389 371 444 305T596 238Q696 238 754 307T813 496V1000H1100V0ZM840 1213Q786 1213 753 1246T720 1333Q720 1386 753 1419T840
1453Q894 1453 927 1420T960 1333Q960 1279 927 1246T840 1213ZM383 1213Q329 1213 296 1246T263 1333Q263 1386 296 1419T383 1453Q436 1453 469 1420T503 1333Q503 1279 470 1246T383 1213Z" />
<glyph unicode="&#xfd;" horiz-adv-x="1291" d="M748 1162H544L686 1500H946L748 1162ZM642 -500H337L545 1L28 1000H364L680 328L959 1000H1263L642 -500Z" />
<glyph unicode="&#xfe;" horiz-adv-x="1256" d="M410 -500H122V1500H410V858Q471 934 558 977T750 1020Q884 1020 988 953T1153 768T1214 500Q1214 351 1154 233T989 48T750 -20Q645 -20 558 23T410 142V-500ZM665 237Q738 237 795 271T886 364T920 500Q920 575
887 635T796 729T665 763Q595 763 539 732T449 647T410 521V477Q415 408 449 354T539 268T665 237Z" />
<glyph unicode="&#xff;" horiz-adv-x="1292" d="M643 -500H337L545 1L40 1000H364L681 328L959 1000H1264L643 -500ZM901 1213Q847 1213 814 1246T781 1333Q781 1386 814 1419T901 1453Q955 1453 988 1420T1021 1333Q1021 1279 988 1246T901 1213ZM444 1213Q390
1213 357 1246T324 1333Q324 1386 357 1419T444 1453Q497 1453 530 1420T564 1333Q564 1279 531 1246T444 1213Z" />
<glyph unicode="&#x2013;" horiz-adv-x="1264" d="M1142 398H122V617H1142V398Z" />
<glyph unicode="&#x2014;" horiz-adv-x="2284" d="M2162 398H122V617H2162V398Z" />
<glyph unicode="&#x2018;" horiz-adv-x="543" d="M324 1070H122L258 1520H425L324 1070Z" />
<glyph unicode="&#x2019;" horiz-adv-x="543" d="M284 1070H122L223 1520H421L284 1070Z" />
<glyph unicode="&#x201a;" horiz-adv-x="482" d="M274 -240H82L156 192H390L274 -240Z" />
<glyph unicode="&#x201c;" horiz-adv-x="937" d="M320 1070H122L259 1520H421L320 1070ZM714 1070H515L652 1520H815L714 1070Z" />
<glyph unicode="&#x201d;" horiz-adv-x="936" d="M678 1070H515L616 1520H814L678 1070ZM285 1070H122L223 1520H421L285 1070Z" />
<glyph unicode="&#x201e;" horiz-adv-x="879" d="M671 -240H479L553 192H787L671 -240ZM274 -240H82L156 192H390L274 -240Z" />
<glyph unicode="&#x2022;" horiz-adv-x="574" d="M287 515Q208 515 155 567T102 700Q102 780 155 832T287 885Q368 885 420 833T472 700Q472 619 420 567T287 515Z" />
<glyph unicode="&#x2039;" horiz-adv-x="781" d="M659 114H388L42 518L388 922H659L305 518L659 114Z" />
<glyph unicode="&#x203a;" horiz-adv-x="781" d="M393 114H122L476 518L122 922H393L739 518L393 114Z" />
</font>
</defs>
</svg>
